Доктор Блейк / The Doctor Blake Mysteries / Сезон: 1 / Серии: 1-10 из 10 (Йен Бэрри, Деклан Имис, Фиона Бэнкс) [2013, Австралия, Детектив, драма, HDRip] MVO (Back Board Cinema)

Страницы:  1

Ответить
Автор
Сообщение

rafwan123

Top Loader 04* 1TB

Стаж: 8 лет 5 месяцев

Сообщений: 797

rafwan123 · 22-Апр-19 20:11 (1 месяц 23 дня назад, ред. 22-Апр-19 20:14)

Доктор Блейк / The Doctor Blake Mysteries
Год выпуска: 2013
Страна: Австралия
Жанр: Детектив, драма
Продолжительность: 10 х ~ 00:53:28
Перевод: Профессиональный (многоголосый закадровый) Back Board Cinema
Режиссёр: Йен Бэрри, Деклан Имис, Фиона Бэнкс
В ролях: Крейг МакЛоклен, Надин Гарнер, Чарли Казинс, Джоэль Тобек, Белинда МакКлори, Кейт Вульф, Джон Вуд, Дэвид Уайтели и другие
Описание: Доктор Люсьен Блейк покинул родной городок Балларат ещё молодым. Сейчас он возвращается в него, чтобы унаследовать медицинскую практику отца, который тесно сотрудничал с полицией, выезжая на места преступлений. Теперь медицинские экспертизы будет проводить Люсьен.
Доп. информация:
Сериал озвучен студией Back Board Cinema по заказу телеканала ТВ-Центр
Рип, запись и сведение звука - rafwan123

Сэмпл: http://multi-up.com/1230170
Качество: HDRip
Формат: AVI
Видео: XviD, 720x400 (16:9), 25 fps, ~ 1659 Kbps
Аудио: AC3, 48.0 KHz, 2 ch, 192 Kbps | Back Board Cinema
Субтитры: Отсутствуют
Реклама: Отсутствует
Список серий
01. В тихом омуте
В озере находят труп девушки. Полиция готова закрыть дело, сочтя смерть самоубийством, но доктор Люсьен Блейк так не считает. Утопиться на глубине чуть больше метра сложно, к тому же повреждения на теле покойницы указывают на то, что ее сначала убили, а после скинули труп в озеро. Методы расследования Люсьена повергают полицию в шок.
02. Ради высшего блага
Медсестра и доктор случайно обнаруживают в морге еще не остывшее тело санитара. Люсьена Блейка вызывают на экспертизу. Он собирается провести вскрытие, но узнаёт, что его ассистент сбежал, прихватив с собой все инструменты. На следующий день из морга таинственным образом исчезает и труп санитара.
03. Коммивояжёр
В автокатастрофе погибает коммивояжёр. Полиция уверена, что причиной аварии стало алкогольное опьянение жертвы. Однако доктор Блейк считает, что всё не так просто: мужчина умер ещё до аварии при весьма необычных обстоятельствах.
04. Братская любовь
Сумасшедший заключённый в камере смертников утверждает, что невиновен в преступлении, за которое его должны повесить. Доктор Блейк делает всё возможное, чтобы раскрыть правду.
05. Излишняя сентиментальность
В собственной оранжерее заживо сгорает главный судья цветочного фестиваля профессор Орманд. Полиция считает, что причиной пожара стала вышедшая из строя система отопления. Доктор Блейк ставит эту версию под сомнение, поскольку вскрытие показывает, что жертва была сначала задушена, а потом сожжена.
06. Если обувь вам к лицу
Смерть лиректора фабрики на первый взгляд похожа на несчастный случай на производстве. Но доктор Люсьен Блейк копает дальше, и наружу всплывает целая вереница преступлений, раскрывая темную сторону послевоенной Австралии.
07. Бедлам
В психиатрической больнице зарезали медсестру Вайолет. Возле тела девушки застают пациента, держащего в руках окровавленный нож. У полиции нет никаких сомнений: убийца схвачен на месте преступления. Но доктор Люсьен Блейк сомневается, что безумец действительно виновен, и начинает расследование.
08. Игра чемпионов
Один за другим погибают участники популярной телевикторины. Доктор Блейк начинает расследование и проникает в мир закулисных махинаций и страстей.
09. То, что блестит
Старателю посчастливилось найти ценный самородок. На радостях парень пошёл в бар похвастаться своей удачей. Тем же вечером его нашли мёртвым. Место убийства вызывает у доктора Блейка тревожные воспоминания о войне.
10. Чей-то сын, чья-то дочь
Полиция расследует смерть доктора Хейзел Махони, которая повесилась в своём кабинете в больнице Балларата. Доктор Блейк хорошо знал её, поскольку они оба служили в больничном совете, и ему трудно поверить, что она покончила с собой. Вскрытие указывает на то, что женщина умерла, лежа горизонтально, а затем была повешена. Некоторые подробности её личной жизни заставляют Блейка сомневаться в версии самоубийства.
MediaInfo
Общее
Полное имя : G:\The.Doctor.Blake.Mysteries.s01.MVO\The.Doctor.Blake.Mysteries.s01e01.Still.Waters.avi
Формат : AVI
Формат/Информация : Audio Video Interleave
Размер файла : 713 Мбайт
Продолжительность : 53 м. 32 с.
Общий поток : 1861 Кбит/сек
Программа кодирования : VirtualDubModRus 1.5.10.2 (build 2542/release)
Библиотека кодирования : VirtualDubMod build 2542/release
Видео
Идентификатор : 0
Формат : MPEG-4 Visual
Профиль формата : Advanced Simple@L5
Параметр BVOP формата : 2
Параметр QPel формата : Нет
Параметр GMC формата : Без точки перехода
Параметр матрицы формата : Выборочная
Идентификатор кодека : XVID
Идентификатор кодека/Подсказка : XviD
Продолжительность : 53 м. 32 с.
Битрейт : 1659 Кбит/сек
Ширина : 720 пикселей
Высота : 400 пикселей
Соотношение сторон : 16:9
Частота кадров : 25,000 кадров/сек
Цветовое пространство : YUV
Субдискретизация насыщенности : 4:2:0
Битовая глубина : 8 бит
Тип развёртки : Прогрессивная
Метод сжатия : С потерями
Бит/(Пиксели*Кадры) : 0.230
Размер потока : 636 Мбайт (89%)
Библиотека кодирования : XviD 73
Аудио
Идентификатор : 1
Формат : AC-3
Формат/Информация : Audio Coding 3
Расширение режима : CM (complete main)
Параметр Endianness формата : Big
Идентификатор кодека : 2000
Продолжительность : 53 м. 32 с.
Вид битрейта : Постоянный
Битрейт : 192 Кбит/сек
Каналы : 2 канала
Расположение каналов : Front: L R
Частота : 48,0 КГц
Частота кадров : 31,250 кадров/сек (1536 spf)
Битовая глубина : 16 бит
Метод сжатия : С потерями
Размер потока : 73,5 Мбайт (10%)
Выравнивание : Разделение по промежуткам
Продолжительность промежутка : 40 мс. (1,00 видеокадр)
Время предзагрузки промежутка : 500 мс.
Скриншоты
Предыдущие и альтернативные раздачи
Download
Для скачивания .torrent файлов необходима регистрация
Сайт не распространяет и не хранит электронные версии произведений, а лишь предоставляет доступ к создаваемому пользователями каталогу ссылок на торрент-файлы, которые содержат только списки хеш-сумм
[Профиль]  [ЛС] 

rafwan123

Top Loader 04* 1TB

Стаж: 8 лет 5 месяцев

Сообщений: 797

rafwan123 · 22-Апр-19 20:11 (спустя 40 сек.)

На вырезанные фрагменты поставлена озвучка Agatha Studdio
[Профиль]  [ЛС] 

emirates42

Стаж: 10 лет 2 месяца

Сообщений: 22


emirates42 · 27-Апр-19 09:14 (спустя 4 дня)

спасибо, жду следующие сезоны.
эта озвучка мне нравится больше всех
[Профиль]  [ЛС] 

bot · 03-Май-19 20:49 (спустя 6 дней)

Тема была перенесена из форума Зарубежные сериалы в форум Сериалы Австралии и Новой Зеландии
Wentworth_Miller
 
 
Ответить
Loading...
Error